<?xml version="1.0" standalone="no"?>
<!DOCTYPE svg PUBLIC "-//W3C//DTD SVG 1.1//EN" "http://www.w3.org/Graphics/SVG/1.1/DTD/svg11.dtd" >
<svg>
<metadata>
Created by FontForge 20110222 at Mon Mar  7 12:00:48 2011
 By www-data
</metadata>
<defs>
<font id="Bar-Code39" horiz-adv-x="1185" >
  <font-face 
    font-family="Bar-Code 39"
    font-weight="400"
    font-stretch="normal"
    units-per-em="2048"
    panose-1="2 11 6 3 5 3 2 2 2 4"
    ascent="1638"
    descent="-410"
    x-height="2363"
    cap-height="2363"
    bbox="0 0 2288 2363"
    underline-thickness="0"
    underline-position="0"
    unicode-range="U+0020-2039"
  />
    <missing-glyph />
    <glyph glyph-name="zero" unicode="0" 
d="M1016 2363h84v-2363h-84v2363zM451 2363h198v-2363h-198v2363zM734 2363h197v-2363h-197v2363zM0 2363h85v-2363h-85v2363zM169 2363h85v-2363h-85v2363z" />
    <glyph glyph-name="one" unicode="1" 
d="M0 2363h197v-2363h-197v2363zM282 2363h85v-2363h-85v2363zM564 2363h85v-2363h-85v2363zM734 2363h84v-2363h-84v2363zM903 2363h197v-2363h-197v2363z" />
    <glyph glyph-name="two" unicode="2" 
d="M0 2363h85v-2363h-85v2363zM169 2363h198v-2363h-198v2363zM564 2363h85v-2363h-85v2363zM734 2363h84v-2363h-84v2363zM903 2363h197v-2363h-197v2363z" />
    <glyph glyph-name="three" unicode="3" 
d="M0 2363h197v-2363h-197v2363zM282 2363h198v-2363h-198v2363zM677 2363h85v-2363h-85v2363zM846 2363h85v-2363h-85v2363zM1016 2363h84v-2363h-84v2363z" />
    <glyph glyph-name="four" unicode="4" 
d="M0 2363h85v-2363h-85v2363zM169 2363h85v-2363h-85v2363zM451 2363h198v-2363h-198v2363zM734 2363h84v-2363h-84v2363zM903 2363h197v-2363h-197v2363z" />
    <glyph glyph-name="five" unicode="5" 
d="M0 2363h197v-2363h-197v2363zM282 2363h85v-2363h-85v2363zM564 2363h198v-2363h-198v2363zM846 2363h85v-2363h-85v2363zM1016 2363h84v-2363h-84v2363z" />
    <glyph glyph-name="six" unicode="6" 
d="M169 2363h198v-2363h-198v2363zM0 2363h85v-2363h-85v2363zM564 2363h198v-2363h-198v2363zM846 2363h85v-2363h-85v2363zM1016 2363h84v-2363h-84v2363z" />
    <glyph glyph-name="seven" unicode="7" 
d="M169 2363h85v-2363h-85v2363zM0 2363h85v-2363h-85v2363zM621 2363h197v-2363h-197v2363zM451 2363h85v-2363h-85v2363zM903 2363h197v-2363h-197v2363z" />
    <glyph glyph-name="eight" unicode="8" 
d="M282 2363h85v-2363h-85v2363zM0 2363h197v-2363h-197v2363zM734 2363h197v-2363h-197v2363zM564 2363h85v-2363h-85v2363zM1016 2363h84v-2363h-84v2363z" />
    <glyph glyph-name="nine" unicode="9" 
d="M169 2363h198v-2363h-198v2363zM0 2363h85v-2363h-85v2363zM734 2363h197v-2363h-197v2363zM564 2363h85v-2363h-85v2363zM1016 2363h84v-2363h-84v2363z" />
    <glyph glyph-name="quotedbl" unicode="&#x22;" 
d="M1016 2363h84v-2363h-84v2363zM734 2363h197v-2363h-197v2363zM451 2363h198v-2363h-198v2363zM282 2363h85v-2363h-85v2363zM0 2363h85v-2363h-85v2363z" />
    <glyph glyph-name="dollar" unicode="$" 
d="M282 2363h85v-2363h-85v2363zM0 2363h85v-2363h-85v2363zM846 2363h85v-2363h-85v2363zM564 2363h85v-2363h-85v2363zM1016 2363h84v-2363h-84v2363z" />
    <glyph glyph-name="percent" unicode="%" 
d="M169 2363h85v-2363h-85v2363zM0 2363h85v-2363h-85v2363zM734 2363h84v-2363h-84v2363zM451 2363h85v-2363h-85v2363zM1016 2363h84v-2363h-84v2363z" />
    <glyph glyph-name="plus" unicode="+" 
d="M282 2363h85v-2363h-85v2363zM0 2363h85v-2363h-85v2363zM734 2363h84v-2363h-84v2363zM451 2363h85v-2363h-85v2363zM1016 2363h84v-2363h-84v2363z" />
    <glyph glyph-name="asterisk" unicode="*" 
d="M282 2363h85v-2363h-85v2363zM0 2363h85v-2363h-85v2363zM734 2363h197v-2363h-197v2363zM451 2363h198v-2363h-198v2363zM1016 2363h84v-2363h-84v2363z" />
    <glyph glyph-name="period" unicode="." 
d="M395 2363h85v-2363h-85v2363zM0 2363h197v-2363h-197v2363zM734 2363h197v-2363h-197v2363zM564 2363h85v-2363h-85v2363zM1016 2363h84v-2363h-84v2363z" />
    <glyph glyph-name="comma" unicode="," 
d="M395 2363h85v-2363h-85v2363zM0 2363h197v-2363h-197v2363zM734 2363h197v-2363h-197v2363zM564 2363h85v-2363h-85v2363zM1016 2363h84v-2363h-84v2363z" />
    <glyph glyph-name="slash" unicode="/" 
d="M282 2363h85v-2363h-85v2363zM0 2363h85v-2363h-85v2363zM734 2363h84v-2363h-84v2363zM564 2363h85v-2363h-85v2363zM1016 2363h84v-2363h-84v2363z" />
    <glyph glyph-name="A" unicode="A" 
d="M282 2363h85v-2363h-85v2363zM0 2363h197v-2363h-197v2363zM903 2363h197v-2363h-197v2363zM451 2363h85v-2363h-85v2363zM734 2363h84v-2363h-84v2363z" />
    <glyph glyph-name="a" unicode="a" 
d="M282 2363h85v-2363h-85v2363zM0 2363h197v-2363h-197v2363zM903 2363h197v-2363h-197v2363zM451 2363h85v-2363h-85v2363zM734 2363h84v-2363h-84v2363z" />
    <glyph glyph-name="b" unicode="b" 
d="M169 2363h226v-2363h-226v2363zM0 2363h85v-2363h-85v2363zM734 2363h84v-2363h-84v2363zM480 2363h84v-2363h-84v2363zM903 2363h197v-2363h-197v2363z" />
    <glyph glyph-name="B" unicode="B" 
d="M169 2363h226v-2363h-226v2363zM0 2363h85v-2363h-85v2363zM734 2363h84v-2363h-84v2363zM480 2363h84v-2363h-84v2363zM903 2363h197v-2363h-197v2363z" />
    <glyph glyph-name="C" unicode="C" 
d="M282 2363h198v-2363h-198v2363zM0 2363h197v-2363h-197v2363zM846 2363h85v-2363h-85v2363zM564 2363h85v-2363h-85v2363zM1016 2363h84v-2363h-84v2363z" />
    <glyph glyph-name="c" unicode="c" 
d="M282 2363h198v-2363h-198v2363zM0 2363h197v-2363h-197v2363zM846 2363h85v-2363h-85v2363zM564 2363h85v-2363h-85v2363zM1016 2363h84v-2363h-84v2363z" />
    <glyph glyph-name="d" unicode="d" 
d="M169 2363h85v-2363h-85v2363zM0 2363h85v-2363h-85v2363zM339 2363h197v-2363h-197v2363zM734 2363h84v-2363h-84v2363zM903 2363h197v-2363h-197v2363z" />
    <glyph glyph-name="D" unicode="D" 
d="M169 2363h85v-2363h-85v2363zM0 2363h85v-2363h-85v2363zM339 2363h197v-2363h-197v2363zM734 2363h84v-2363h-84v2363zM903 2363h197v-2363h-197v2363z" />
    <glyph glyph-name="E" unicode="E" 
d="M846 2363h85v-2363h-85v2363zM0 2363h197v-2363h-197v2363zM451 2363h198v-2363h-198v2363zM282 2363h85v-2363h-85v2363zM1016 2363h84v-2363h-84v2363z" />
    <glyph glyph-name="e" unicode="e" 
d="M846 2363h85v-2363h-85v2363zM0 2363h197v-2363h-197v2363zM451 2363h198v-2363h-198v2363zM282 2363h85v-2363h-85v2363zM1016 2363h84v-2363h-84v2363z" />
    <glyph glyph-name="f" unicode="f" 
d="M169 2363h198v-2363h-198v2363zM0 2363h85v-2363h-85v2363zM846 2363h85v-2363h-85v2363zM451 2363h198v-2363h-198v2363zM1016 2363h84v-2363h-84v2363z" />
    <glyph glyph-name="F" unicode="F" 
d="M169 2363h198v-2363h-198v2363zM0 2363h85v-2363h-85v2363zM846 2363h85v-2363h-85v2363zM451 2363h198v-2363h-198v2363zM1016 2363h84v-2363h-84v2363z" />
    <glyph glyph-name="G" unicode="G" 
d="M169 2363h85v-2363h-85v2363zM0 2363h85v-2363h-85v2363zM621 2363h197v-2363h-197v2363zM339 2363h84v-2363h-84v2363zM903 2363h197v-2363h-197v2363z" />
    <glyph glyph-name="g" unicode="g" 
d="M169 2363h85v-2363h-85v2363zM0 2363h85v-2363h-85v2363zM621 2363h197v-2363h-197v2363zM339 2363h84v-2363h-84v2363zM903 2363h197v-2363h-197v2363z" />
    <glyph glyph-name="h" unicode="h" 
d="M282 2363h85v-2363h-85v2363zM0 2363h197v-2363h-197v2363zM734 2363h197v-2363h-197v2363zM451 2363h85v-2363h-85v2363zM1016 2363h84v-2363h-84v2363z" />
    <glyph glyph-name="H" unicode="H" 
d="M282 2363h85v-2363h-85v2363zM0 2363h197v-2363h-197v2363zM734 2363h197v-2363h-197v2363zM451 2363h85v-2363h-85v2363zM1016 2363h84v-2363h-84v2363z" />
    <glyph glyph-name="I" unicode="I" 
d="M169 2363h198v-2363h-198v2363zM0 2363h85v-2363h-85v2363zM734 2363h197v-2363h-197v2363zM451 2363h85v-2363h-85v2363zM1016 2363h84v-2363h-84v2363z" />
    <glyph glyph-name="i" unicode="i" 
d="M169 2363h198v-2363h-198v2363zM0 2363h85v-2363h-85v2363zM734 2363h197v-2363h-197v2363zM451 2363h85v-2363h-85v2363zM1016 2363h84v-2363h-84v2363z" />
    <glyph glyph-name="j" unicode="j" 
d="M169 2363h85v-2363h-85v2363zM0 2363h85v-2363h-85v2363zM734 2363h197v-2363h-197v2363zM339 2363h197v-2363h-197v2363zM1016 2363h84v-2363h-84v2363z" />
    <glyph glyph-name="J" unicode="J" 
d="M169 2363h85v-2363h-85v2363zM0 2363h85v-2363h-85v2363zM734 2363h197v-2363h-197v2363zM339 2363h197v-2363h-197v2363zM1016 2363h84v-2363h-84v2363z" />
    <glyph glyph-name="K" unicode="K" 
d="M282 2363h85v-2363h-85v2363zM0 2363h197v-2363h-197v2363zM903 2363h197v-2363h-197v2363zM451 2363h85v-2363h-85v2363zM621 2363h85v-2363h-85v2363z" />
    <glyph glyph-name="k" unicode="k" 
d="M282 2363h85v-2363h-85v2363zM0 2363h197v-2363h-197v2363zM903 2363h197v-2363h-197v2363zM451 2363h85v-2363h-85v2363zM621 2363h85v-2363h-85v2363z" />
    <glyph glyph-name="M" unicode="M" 
d="M282 2363h198v-2363h-198v2363zM0 2363h197v-2363h-197v2363zM734 2363h84v-2363h-84v2363zM564 2363h85v-2363h-85v2363zM1016 2363h84v-2363h-84v2363z" />
    <glyph glyph-name="m" unicode="m" 
d="M282 2363h198v-2363h-198v2363zM0 2363h197v-2363h-197v2363zM734 2363h84v-2363h-84v2363zM564 2363h85v-2363h-85v2363zM1016 2363h84v-2363h-84v2363z" />
    <glyph glyph-name="n" unicode="n" 
d="M169 2363h85v-2363h-85v2363zM0 2363h85v-2363h-85v2363zM621 2363h85v-2363h-85v2363zM339 2363h197v-2363h-197v2363zM903 2363h197v-2363h-197v2363z" />
    <glyph glyph-name="N" unicode="N" 
d="M169 2363h85v-2363h-85v2363zM0 2363h85v-2363h-85v2363zM621 2363h85v-2363h-85v2363zM339 2363h197v-2363h-197v2363zM903 2363h197v-2363h-197v2363z" />
    <glyph glyph-name="O" unicode="O" 
d="M282 2363h85v-2363h-85v2363zM0 2363h197v-2363h-197v2363zM734 2363h84v-2363h-84v2363zM451 2363h198v-2363h-198v2363zM1016 2363h84v-2363h-84v2363z" />
    <glyph glyph-name="o" unicode="o" 
d="M282 2363h85v-2363h-85v2363zM0 2363h197v-2363h-197v2363zM734 2363h84v-2363h-84v2363zM451 2363h198v-2363h-198v2363zM1016 2363h84v-2363h-84v2363z" />
    <glyph glyph-name="p" unicode="p" 
d="M169 2363h198v-2363h-198v2363zM0 2363h85v-2363h-85v2363zM734 2363h84v-2363h-84v2363zM451 2363h198v-2363h-198v2363zM1016 2363h84v-2363h-84v2363z" />
    <glyph glyph-name="P" unicode="P" 
d="M169 2363h198v-2363h-198v2363zM0 2363h85v-2363h-85v2363zM734 2363h84v-2363h-84v2363zM451 2363h198v-2363h-198v2363zM1016 2363h84v-2363h-84v2363z" />
    <glyph glyph-name="Q" unicode="Q" 
d="M169 2363h85v-2363h-85v2363zM0 2363h85v-2363h-85v2363zM508 2363h198v-2363h-198v2363zM339 2363h84v-2363h-84v2363zM903 2363h197v-2363h-197v2363z" />
    <glyph glyph-name="q" unicode="q" 
d="M169 2363h85v-2363h-85v2363zM0 2363h85v-2363h-85v2363zM508 2363h198v-2363h-198v2363zM339 2363h84v-2363h-84v2363zM903 2363h197v-2363h-197v2363z" />
    <glyph glyph-name="r" unicode="r" 
d="M282 2363h85v-2363h-85v2363zM0 2363h197v-2363h-197v2363zM621 2363h197v-2363h-197v2363zM451 2363h85v-2363h-85v2363zM1016 2363h84v-2363h-84v2363z" />
    <glyph glyph-name="R" unicode="R" 
d="M282 2363h85v-2363h-85v2363zM0 2363h197v-2363h-197v2363zM621 2363h197v-2363h-197v2363zM451 2363h85v-2363h-85v2363zM1016 2363h84v-2363h-84v2363z" />
    <glyph glyph-name="S" unicode="S" 
d="M169 2363h198v-2363h-198v2363zM0 2363h85v-2363h-85v2363zM621 2363h197v-2363h-197v2363zM451 2363h85v-2363h-85v2363zM1016 2363h84v-2363h-84v2363z" />
    <glyph glyph-name="s" unicode="s" 
d="M169 2363h198v-2363h-198v2363zM0 2363h85v-2363h-85v2363zM621 2363h197v-2363h-197v2363zM451 2363h85v-2363h-85v2363zM1016 2363h84v-2363h-84v2363z" />
    <glyph glyph-name="t" unicode="t" 
d="M169 2363h85v-2363h-85v2363zM0 2363h85v-2363h-85v2363zM621 2363h197v-2363h-197v2363zM339 2363h197v-2363h-197v2363zM1016 2363h84v-2363h-84v2363z" />
    <glyph glyph-name="T" unicode="T" 
d="M169 2363h85v-2363h-85v2363zM0 2363h85v-2363h-85v2363zM621 2363h197v-2363h-197v2363zM339 2363h197v-2363h-197v2363zM1016 2363h84v-2363h-84v2363z" />
    <glyph glyph-name="U" unicode="U" 
d="M395 2363h85v-2363h-85v2363zM0 2363h197v-2363h-197v2363zM734 2363h84v-2363h-84v2363zM564 2363h85v-2363h-85v2363zM903 2363h197v-2363h-197v2363z" />
    <glyph glyph-name="u" unicode="u" 
d="M395 2363h85v-2363h-85v2363zM0 2363h197v-2363h-197v2363zM734 2363h84v-2363h-84v2363zM564 2363h85v-2363h-85v2363zM903 2363h197v-2363h-197v2363z" />
    <glyph glyph-name="v" unicode="v" 
d="M282 2363h198v-2363h-198v2363zM0 2363h85v-2363h-85v2363zM734 2363h84v-2363h-84v2363zM564 2363h85v-2363h-85v2363zM903 2363h197v-2363h-197v2363z" />
    <glyph glyph-name="V" unicode="V" 
d="M282 2363h198v-2363h-198v2363zM0 2363h85v-2363h-85v2363zM734 2363h84v-2363h-84v2363zM564 2363h85v-2363h-85v2363zM903 2363h197v-2363h-197v2363z" />
    <glyph glyph-name="W" unicode="W" 
d="M395 2363h197v-2363h-197v2363zM0 2363h197v-2363h-197v2363zM846 2363h85v-2363h-85v2363zM677 2363h85v-2363h-85v2363zM1016 2363h84v-2363h-84v2363z" />
    <glyph glyph-name="w" unicode="w" 
d="M395 2363h197v-2363h-197v2363zM0 2363h197v-2363h-197v2363zM846 2363h85v-2363h-85v2363zM677 2363h85v-2363h-85v2363zM1016 2363h84v-2363h-84v2363z" />
    <glyph glyph-name="x" unicode="x" 
d="M282 2363h85v-2363h-85v2363zM0 2363h85v-2363h-85v2363zM734 2363h84v-2363h-84v2363zM451 2363h198v-2363h-198v2363zM903 2363h197v-2363h-197v2363z" />
    <glyph glyph-name="X" unicode="X" 
d="M282 2363h85v-2363h-85v2363zM0 2363h85v-2363h-85v2363zM734 2363h84v-2363h-84v2363zM451 2363h198v-2363h-198v2363zM903 2363h197v-2363h-197v2363z" />
    <glyph glyph-name="Y" unicode="Y" 
d="M564 2363h198v-2363h-198v2363zM0 2363h197v-2363h-197v2363zM846 2363h85v-2363h-85v2363zM395 2363h85v-2363h-85v2363zM1016 2363h84v-2363h-84v2363z" />
    <glyph glyph-name="y" unicode="y" 
d="M564 2363h198v-2363h-198v2363zM0 2363h197v-2363h-197v2363zM846 2363h85v-2363h-85v2363zM395 2363h85v-2363h-85v2363zM1016 2363h84v-2363h-84v2363z" />
    <glyph glyph-name="z" unicode="z" 
d="M282 2363h198v-2363h-198v2363zM0 2363h85v-2363h-85v2363zM846 2363h85v-2363h-85v2363zM564 2363h198v-2363h-198v2363zM1016 2363h84v-2363h-84v2363z" />
    <glyph glyph-name="Z" unicode="Z" 
d="M282 2363h198v-2363h-198v2363zM0 2363h85v-2363h-85v2363zM846 2363h85v-2363h-85v2363zM564 2363h198v-2363h-198v2363zM1016 2363h84v-2363h-84v2363z" />
    <glyph glyph-name="quotesingle" unicode="'" 
d="M0 2363h197v-2363h-197v2363zM282 2363h85v-2363h-85v2363zM564 2363h85v-2363h-85v2363zM734 2363h84v-2363h-84v2363zM903 2363h197v-2363h-197v2363z" />
    <glyph glyph-name="less" unicode="&#x3c;" 
d="M0 2363h197v-2363h-197v2363zM282 2363h85v-2363h-85v2363zM564 2363h85v-2363h-85v2363zM734 2363h84v-2363h-84v2363zM903 2363h197v-2363h-197v2363z" />
    <glyph glyph-name="equal" unicode="=" 
d="M0 2363h197v-2363h-197v2363zM282 2363h85v-2363h-85v2363zM564 2363h85v-2363h-85v2363zM734 2363h84v-2363h-84v2363zM903 2363h197v-2363h-197v2363z" />
    <glyph glyph-name="greater" unicode="&#x3e;" 
d="M0 2363h197v-2363h-197v2363zM282 2363h85v-2363h-85v2363zM564 2363h85v-2363h-85v2363zM734 2363h84v-2363h-84v2363zM903 2363h197v-2363h-197v2363z" />
    <glyph glyph-name="asciicircum" unicode="^" 
d="M0 2363h197v-2363h-197v2363zM282 2363h85v-2363h-85v2363zM564 2363h85v-2363h-85v2363zM734 2363h84v-2363h-84v2363zM903 2363h197v-2363h-197v2363z" />
    <glyph glyph-name="underscore" unicode="_" 
d="M0 2363h197v-2363h-197v2363zM282 2363h85v-2363h-85v2363zM564 2363h85v-2363h-85v2363zM734 2363h84v-2363h-84v2363zM903 2363h197v-2363h-197v2363z" />
    <glyph glyph-name="grave" unicode="`" 
d="M0 2363h197v-2363h-197v2363zM282 2363h85v-2363h-85v2363zM564 2363h85v-2363h-85v2363zM734 2363h84v-2363h-84v2363zM903 2363h197v-2363h-197v2363z" />
    <glyph glyph-name="bar" unicode="|" 
d="M0 2363h197v-2363h-197v2363zM282 2363h85v-2363h-85v2363zM564 2363h85v-2363h-85v2363zM734 2363h84v-2363h-84v2363zM903 2363h197v-2363h-197v2363z" />
    <glyph glyph-name="asciitilde" unicode="~" 
d="M0 2363h197v-2363h-197v2363zM282 2363h85v-2363h-85v2363zM564 2363h85v-2363h-85v2363zM734 2363h84v-2363h-84v2363zM903 2363h197v-2363h-197v2363z" />
    <glyph glyph-name="florin" unicode="&#x192;" horiz-adv-x="2370" 
d="M2034 2363h85v-2363h-85v2363zM1188 2363h197v-2363h-197v2363zM1639 2363h198v-2363h-198v2363zM1470 2363h84v-2363h-84v2363zM2203 2363h85v-2363h-85v2363zM282 2363h85v-2363h-85v2363zM0 2363h197v-2363h-197v2363zM903 2363h197v-2363h-197v2363zM451 2363h85
v-2363h-85v2363zM734 2363h84v-2363h-84v2363z" />
    <glyph glyph-name="perthousand" unicode="&#x2030;" horiz-adv-x="2370" 
d="M2034 2363h85v-2363h-85v2363zM1188 2363h197v-2363h-197v2363zM1639 2363h198v-2363h-198v2363zM1470 2363h84v-2363h-84v2363zM2203 2363h85v-2363h-85v2363zM282 2363h85v-2363h-85v2363zM0 2363h197v-2363h-197v2363zM903 2363h197v-2363h-197v2363zM451 2363h85
v-2363h-85v2363zM734 2363h84v-2363h-84v2363z" />
    <glyph glyph-name="circumflex" unicode="&#x2c6;" horiz-adv-x="2370" 
d="M2034 2363h85v-2363h-85v2363zM1188 2363h197v-2363h-197v2363zM1639 2363h198v-2363h-198v2363zM1470 2363h84v-2363h-84v2363zM2203 2363h85v-2363h-85v2363zM282 2363h85v-2363h-85v2363zM0 2363h197v-2363h-197v2363zM734 2363h84v-2363h-84v2363zM451 2363h198
v-2363h-198v2363zM1016 2363h84v-2363h-84v2363z" />
    <glyph glyph-name="cedilla" unicode="&#xb8;" horiz-adv-x="2370" 
d="M2034 2363h85v-2363h-85v2363zM1188 2363h197v-2363h-197v2363zM1639 2363h198v-2363h-198v2363zM1470 2363h84v-2363h-84v2363zM2203 2363h85v-2363h-85v2363zM395 2363h85v-2363h-85v2363zM0 2363h197v-2363h-197v2363zM734 2363h84v-2363h-84v2363zM564 2363h85v-2363
h-85v2363zM903 2363h197v-2363h-197v2363z" />
    <glyph glyph-name="guilsinglleft" unicode="&#x2039;" horiz-adv-x="2370" 
d="M2034 2363h85v-2363h-85v2363zM1188 2363h197v-2363h-197v2363zM1639 2363h198v-2363h-198v2363zM1470 2363h84v-2363h-84v2363zM2203 2363h85v-2363h-85v2363zM395 2363h85v-2363h-85v2363zM0 2363h197v-2363h-197v2363zM734 2363h84v-2363h-84v2363zM564 2363h85v-2363
h-85v2363zM903 2363h197v-2363h-197v2363z" />
    <glyph glyph-name="divide" unicode="&#xf7;" horiz-adv-x="2370" 
d="M2034 2363h85v-2363h-85v2363zM1188 2363h197v-2363h-197v2363zM1639 2363h198v-2363h-198v2363zM1470 2363h84v-2363h-84v2363zM2203 2363h85v-2363h-85v2363zM282 2363h85v-2363h-85v2363zM0 2363h197v-2363h-197v2363zM734 2363h84v-2363h-84v2363zM451 2363h198
v-2363h-198v2363zM1016 2363h84v-2363h-84v2363z" />
    <glyph glyph-name="germandbls" unicode="&#xdf;" 
d="M0 2363h197v-2363h-197v2363zM282 2363h85v-2363h-85v2363zM564 2363h85v-2363h-85v2363zM734 2363h84v-2363h-84v2363zM903 2363h197v-2363h-197v2363z" />
    <glyph glyph-name="uni00B5" unicode="&#xb5;" 
d="M0 2363h197v-2363h-197v2363zM282 2363h85v-2363h-85v2363zM564 2363h85v-2363h-85v2363zM734 2363h84v-2363h-84v2363zM903 2363h197v-2363h-197v2363z" />
    <glyph glyph-name="parenright" unicode=")" horiz-adv-x="395" 
d="M50 2078q164 -88 246 -250q81 -162 81 -401v-752q0 -239 -81 -401q-82 -162 -246 -249v172q95 75 137 182q40 103 40 323v699q0 218 -40 322q-42 106 -137 182v173z" />
    <glyph glyph-name="parenleft" unicode="(" horiz-adv-x="395" 
d="M377 25q-165 88 -246 250t-81 401v752q0 240 81 401q81 162 246 249v-172q-97 -77 -137 -182q-40 -108 -40 -323v-699q0 -215 40 -322q40 -106 137 -182v-173z" />
    <glyph glyph-name="bracketleft" unicode="[" horiz-adv-x="393" 
d="M375 186v-126h-353v1987h353v-127h-203v-1734h203z" />
    <glyph glyph-name="bracketright" unicode="]" horiz-adv-x="393" 
d="M22 1920v127h353v-1987h-353v126h203v1734h-203z" />
    <glyph glyph-name="braceleft" unicode="{" horiz-adv-x="802" 
d="M764 1956h-39q-140 0 -189 -53q-49 -52 -49 -219v-258q0 -180 -46 -255q-47 -77 -164 -111q117 -34 164 -109q46 -76 46 -256v-257q0 -166 48 -218q48 -53 181 -53q3 0 9 0.5t15 0.5q10 1 24 1v-113h-50q-211 0 -284 77q-74 78 -74 316v260q0 164 -61 231q-60 67 -207 67
q-13 0 -23 -1q-8 0 -14.5 -0.5t-10.5 -0.5v113q15 0 25 -1t23 -1q147 0 207 67q61 66 61 232v259q0 237 74 316t284 79h50v-113z" />
    <glyph glyph-name="braceright" unicode="}" horiz-adv-x="802" 
d="M40 169h39q139 0 189 53q49 55 49 219v258q0 180 46 256q47 77 164 110q-117 32 -164 110q-46 75 -46 255v257q0 165 -48 218q-49 53 -181 53q-13 0 -24 -1t-24 -1v113h50q209 0 283 -77q74 -76 74 -315v-261q0 -163 61 -231q62 -67 208 -67q3 0 9 0.5t14 0.5q10 1 25 1
v-113q-6 0 -12 0.5t-13 0.5q-10 1 -23 1q-147 0 -208 -67q-61 -69 -61 -232v-259q0 -238 -74 -316q-76 -79 -283 -79h-50v113z" />
    <glyph glyph-name="iacute" unicode="&#xed;" 
d="M1016 2363h84v-2363h-84v2363zM734 2363h197v-2363h-197v2363zM451 2363h198v-2363h-198v2363zM282 2363h85v-2363h-85v2363zM0 2363h85v-2363h-85v2363z" />
    <glyph glyph-name="igrave" unicode="&#xec;" 
d="M1016 2363h84v-2363h-84v2363zM734 2363h197v-2363h-197v2363zM451 2363h198v-2363h-198v2363zM282 2363h85v-2363h-85v2363zM0 2363h85v-2363h-85v2363z" />
    <glyph glyph-name="icircumflex" unicode="&#xee;" 
d="M1016 2363h84v-2363h-84v2363zM734 2363h197v-2363h-197v2363zM451 2363h198v-2363h-198v2363zM282 2363h85v-2363h-85v2363zM0 2363h85v-2363h-85v2363z" />
    <glyph glyph-name="edieresis" unicode="&#xeb;" 
d="M1016 2363h84v-2363h-84v2363zM734 2363h197v-2363h-197v2363zM451 2363h198v-2363h-198v2363zM282 2363h85v-2363h-85v2363zM0 2363h85v-2363h-85v2363z" />
    <glyph glyph-name="l" unicode="l" 
d="M621 2363h85v-2363h-85v2363zM169 2363h198v-2363h-198v2363zM0 2363h85v-2363h-85v2363zM903 2363h197v-2363h-197v2363zM451 2363h85v-2363h-85v2363z" />
    <glyph glyph-name="L" unicode="L" 
d="M621 2363h85v-2363h-85v2363zM169 2363h198v-2363h-198v2363zM0 2363h85v-2363h-85v2363zM903 2363h197v-2363h-197v2363zM451 2363h85v-2363h-85v2363z" />
    <glyph glyph-name="ordfeminine" unicode="&#xaa;" 
d="M242 1439l379 -493l-379 -494h-211l379 494l-379 493h211zM710 1439l377 -493l-377 -494h-212l381 494l-381 493h212z" />
    <glyph glyph-name="acute" unicode="&#xb4;" 
d="M877 452l-379 493l379 494h210l-379 -494l379 -493h-210zM408 452l-377 493l377 494h213l-382 -494l382 -493h-213z" />
    <glyph glyph-name="exclamdown" unicode="&#xa1;" horiz-adv-x="1024" 
d="M377 25q-165 88 -246 250t-81 401v752q0 240 81 401q81 162 246 249v-172q-97 -77 -137 -182q-40 -108 -40 -323v-699q0 -215 40 -322q40 -106 137 -182v-173z" />
    <glyph glyph-name="hyphen" unicode="-" 
d="M282 2363h85v-2363h-85v2363zM0 2363h85v-2363h-85v2363zM621 2363h197v-2363h-197v2363zM451 2363h85v-2363h-85v2363zM903 2363h197v-2363h-197v2363z" />
    <glyph glyph-name="exclam" unicode="!" 
d="M0 2363h85v-2363h-85v2363zM282 2363h198v-2363h-198v2363zM564 2363h85v-2363h-85v2363zM734 2363h197v-2363h-197v2363zM1016 2363h84v-2363h-84v2363z" />
    <glyph glyph-name="ampersand" unicode="&#x26;" 
d="M0 2363h85v-2363h-85v2363zM282 2363h198v-2363h-198v2363zM564 2363h85v-2363h-85v2363zM734 2363h197v-2363h-197v2363zM1016 2363h84v-2363h-84v2363z" />
    <glyph glyph-name="question" unicode="?" 
d="M0 2363h85v-2363h-85v2363zM282 2363h198v-2363h-198v2363zM564 2363h85v-2363h-85v2363zM734 2363h197v-2363h-197v2363zM1016 2363h84v-2363h-84v2363z" />
    <glyph glyph-name="colon" unicode=":" 
d="M0 2363h85v-2363h-85v2363zM282 2363h198v-2363h-198v2363zM564 2363h85v-2363h-85v2363zM734 2363h197v-2363h-197v2363zM1016 2363h84v-2363h-84v2363z" />
    <glyph glyph-name="semicolon" unicode=";" 
d="M0 2363h85v-2363h-85v2363zM282 2363h198v-2363h-198v2363zM564 2363h85v-2363h-85v2363zM734 2363h197v-2363h-197v2363zM1016 2363h84v-2363h-84v2363z" />
    <glyph glyph-name="numbersign" unicode="#" 
d="M0 2363h85v-2363h-85v2363zM282 2363h198v-2363h-198v2363zM564 2363h85v-2363h-85v2363zM734 2363h197v-2363h-197v2363zM1016 2363h84v-2363h-84v2363z" />
    <glyph glyph-name="backslash" unicode="\" 
d="M0 2363h85v-2363h-85v2363zM282 2363h198v-2363h-198v2363zM564 2363h85v-2363h-85v2363zM734 2363h197v-2363h-197v2363zM1016 2363h84v-2363h-84v2363z" />
    <glyph glyph-name="at" unicode="@" 
d="M0 2363h85v-2363h-85v2363zM282 2363h198v-2363h-198v2363zM564 2363h85v-2363h-85v2363zM734 2363h197v-2363h-197v2363zM1016 2363h84v-2363h-84v2363z" />
  </font>
</defs>
</svg>
